安全的单机游戏下载大全
角色扮演 即时战略 赛车竞速 策略模拟 动作冒险 体育竞技 休闲游戏 动作射击 棋牌益智 恋爱养成 DOS游戏
az角色扮演 az卡牌游戏 az策略战棋 az休闲益智 az动作射击 az赛车游戏 az体育竞技 az格斗游戏 az音乐舞蹈 az塔防游戏 az游戏辅助
动作游戏 音乐舞蹈 赛车游戏 街机游戏 角色扮演 策略模拟 棋牌益智 休闲娱乐 体育游戏 破解游戏
FC CPS1 CPS2 MAME NeoGeo WinKawaks GBA
首页补丁其他 → 轩辕剑6音乐CD 豪华版

轩辕剑6音乐CD豪华版

( 《轩辕剑6》是一款经典的角色扮演类游戏,游戏中呈现出来的动画特效和绚丽的打斗场景让玩家叹为惊止,各种跌宕起伏的奇幻式剧情和强大的任务系统让你欲罢不能,成就感十足。 )

轩辕剑6音乐CD

《轩辕剑6》是一款经典的角色扮演类游戏,游戏中呈现出来的动画特效和绚丽的打斗场景让玩家叹为惊止,各种跌宕起伏的奇幻式剧情和强大的任务系统让你欲罢不能,成就感十足,该补丁为游戏的豪华版音乐CD。使用说明:Exact Audio Copy V1.0 beta 3 from 29. Augu

好评 50%
坏评 50%
游戏大小:138M

轩辕剑6》是一款经典的角色扮演类游戏,游戏中呈现出来的动画特效和绚丽的打斗场景让玩家叹为惊止,各种跌宕起伏的奇幻式剧情和强大的任务系统让你欲罢不能,成就感十足,该补丁为游戏的豪华版音乐CD。

使用说明:

Exact Audio Copy V1.0 beta 3 from 29. August 2011
EAC 抓取日志文件从12. 八月 2013, 18:55
轩辕剑六精选音乐CD
读取模式       : 可靠Secure
使用精确流     : 是
清空音频缓存   : 否
使用 C2 指示器 : 否
所用输出模式: : 内部 WAV 函数
样本格式       : 44.100 Hz; 16 Bit; 立体声
组合读写偏移校正:           : 0
读取 Lead-In 和 Lead-Out     : 否
用静音填充抓取中丢失偏移采样 : 是
去除首尾静音块               : 否
在CRC 计算中使用了空样本      : 是
已抓取 CD 的 TOC

 音轨 |    起始    |    长度    |  起始扇区  |  结束扇区

1 |  0:00.00 |  1:33.34 |      0 |   7008
2 |  1:33.34 |  5:31.55 |   7009 |  31888
3 |  7:05.14 |  1:14.38 |  31889 |  37476
4 |  8:19.52 |  1:48.49 |  37477 |  45625
5 | 10:08.26 |  1:38.46 |  45626 |  53021
6 | 11:46.72 |  2:04.43 |  53022 |  62364
7 | 13:51.40 |  1:28.60 |  62365 |  69024
8 | 15:20.25 |  0:53.69 |  69025 |  73068
9 | 16:14.19 |  2:32.17 |  73069 |  84485
10 | 18:46.36 |  2:18.19 |  84486 |  94854

PC官方版
安卓官方手机版
IOS官方手机版
  • 其他 轩辕剑6音乐CD

    《轩辕剑6》是一款经典的角色扮演类游戏,游戏中呈现出来的动画特效和绚丽的打斗场景让玩家叹为惊止,各种跌宕...

    大小:138M
其他版本下载
    国产三剑合集
    国产三剑合集 总共 27 款应用

    仙剑奇侠传想必是很多玩家都体验过的作品,经典的98柔情版,以及仙剑奇侠传4也是被众多玩家所认可的国产RPG游戏,随着游戏的推成出新,老作品也不能被玩家遗忘,所以偶尔回味一下经典也是不错的选择。轩辕剑系列作品

    轩辕剑
    轩辕剑 总共 165 款应用

    常年以来中国玩家心中只有一款仙侠风格的游戏,之后便迎来了第二个春天就是《轩辕剑》系列。《轩辕剑》的颠峰时期,应该算是《云和山的彼端》以及《天之痕》系列了。这两款以水墨风格和经典的剧情让玩家们最为喜爱。

    游戏截图 查看原图
    游戏下载

    轩辕剑6音乐CD 豪华版

    游戏评论

    热门评论

    最新评论

    发表评论 查看所有评论(0)

    昵称:
    表情: 高兴 可 汗 我不要 害羞 好 下下下 送花 屎 亲亲
    字数: 0/500 (您的评论需要经过审核才能显示)
    下载帮助